AudioStation : Flac/APE no seeking + .cue support missing

An update to DSM3.1 providing multiple volumes on a single Raid, dual disks redundancy in SHR, shared folder synchronization, and other updates
Forum rules
1) This is a user forum for Synology users to share experience/help out each other: if you need direct assistance from the Synology technical support team, please use the following form:

https://account.synology.com/support/su ... p?lang=enu



2) To avoid putting users' DiskStation at risk, please don't paste links to any patches provided by our Support team as we will systematically remove them. Our Support team will provide the correct patch for your DiskStation model.
User avatar
Zouk !
Specialist
Specialist
Posts: 1027
Joined: Fri Jun 20, 2008 12:13 pm

AudioStation : Flac/APE no seeking + .cue support missing

Unread post by Zouk ! » Thu Mar 03, 2011 1:32 am

Hi SynoTeam,

This final version is still missing some features (I think at least #1 should be considered as a bug) :
  • 1 - Seeking track is missing with .flac and .ape track :
    • It's simply not possible to seek to a position in the track
    2 - Add .cue support :
    • Some flac and ape audio are "full CDs" in one .flac or .ape file and track are described in the .cue files, so it's actually a pain to do not be able to listen a track directly since seeking is not supported. Even it was it will stay not very convenient to find a position in "70-80 minutes big song"
example .cue for a .flac track :

Code: Select all

REM GENRE Soundtrack
REM DATE 2009
REM DISCID 87123628
REM COMMENT "SILCD1290"
PERFORMER "Ben Foster"
TITLE "Torchwood: Children of Earth"
FILE "Ben Foster - Torchwood - Children of Earth.flac" WAVE
  TRACK 01 AUDIO
    TITLE "Day One - The First Sacrifice"
    PERFORMER "Ben Foster"
    ISRC GBAJC0900220
    INDEX 01 00:00:00
  TRACK 02 AUDIO
    TITLE "Day One - What's Occurring?"
    PERFORMER "Ben Foster"
    ISRC GBAJC0900221
    INDEX 01 01:25:58
  TRACK 03 AUDIO
    TITLE "Day One - Jack's Daughter"
    PERFORMER "Ben Foster"
    ISRC GBAJC0900222
    INDEX 01 03:36:24
  TRACK 04 AUDIO
    TITLE "Day One - Diplomatic Cars"
    PERFORMER "Ben Foster"
    ISRC GBAJC0900223
    INDEX 01 05:04:61
  TRACK 05 AUDIO
    TITLE "Day One - We Are Coming"
    PERFORMER "Ben Foster"
    ISRC GBAJC0900224
    INDEX 01 06:24:65
  TRACK 06 AUDIO
    TITLE "Day One - Thames House"
    PERFORMER "Ben Foster"
    ISRC GBAJC0900225
    INDEX 01 07:37:03
  TRACK 07 AUDIO
    TITLE "Day One - Double Crossed"
    PERFORMER "Ben Foster"
    ISRC GBAJC0900226
    INDEX 01 09:30:22
  TRACK 08 AUDIO
    TITLE "Day One - Countdown to Destruction"
    PERFORMER "Ben Foster"
    ISRC GBAJC0900227
    INDEX 01 10:57:00
  TRACK 09 AUDIO
    TITLE "Day Two - The Crater"
    PERFORMER "Ben Foster"
    ISRC GBAJC0900228
    INDEX 01 12:49:62
  TRACK 10 AUDIO
    TITLE "Day Two - Torchwood Hunted"
    PERFORMER "Ben Foster"
    ISRC GBAJC0900229
    INDEX 01 13:50:42
  TRACK 11 AUDIO
    TITLE "Day Two - Gwen's Baby"
    PERFORMER "Ben Foster"
    ISRC GBAJC0900230
    INDEX 01 15:32:43
  TRACK 12 AUDIO
    TITLE "Day Two - On the Run"
    PERFORMER "Ben Foster"
    ISRC GBAJC0900231
    INDEX 01 16:36:22
  TRACK 13 AUDIO
    TITLE "Day Two - Jack in a Box"
    PERFORMER "Ben Foster"
    ISRC GBAJC0900232
    INDEX 01 17:49:59
  TRACK 14 AUDIO
    TITLE "Day Two - Ianto Jones"
    PERFORMER "Ben Foster"
    ISRC GBAJC0900233
    INDEX 01 19:24:33
  TRACK 15 AUDIO
    TITLE "Day Two - Tractor Attack"
    PERFORMER "Ben Foster"
    ISRC GBAJC0900234
    INDEX 01 20:15:18
  TRACK 16 AUDIO
    TITLE "Day Two - Resurrection"
    PERFORMER "Ben Foster"
    ISRC GBAJC0900235
    INDEX 01 22:36:31
  TRACK 17 AUDIO
    TITLE "Day Three - Clement MacDonald"
    PERFORMER "Ben Foster"
    ISRC GBAJC0900236
    INDEX 01 23:47:74
  TRACK 18 AUDIO
    TITLE "Day Three - Something's Coming"
    PERFORMER "Ben Foster"
    ISRC GBAJC0900237
    INDEX 01 25:53:37
  TRACK 19 AUDIO
    TITLE "Day Three - Eye Spy"
    PERFORMER "Ben Foster"
    ISRC GBAJC0900238
    INDEX 01 28:28:72
  TRACK 20 AUDIO
    TITLE "Day Three - Trust Nobody"
    PERFORMER "Ben Foster"
    ISRC GBAJC0900239
    INDEX 01 29:49:01
  TRACK 21 AUDIO
    TITLE "Day Three - The World Looks to the Skies"
    PERFORMER "Ben Foster"
    ISRC GBAJC0900240
    INDEX 01 31:35:29
  TRACK 22 AUDIO
    TITLE "Day Four - Jack's Secret"
    PERFORMER "Ben Foster"
    ISRC GBAJC0900241
    INDEX 01 33:46:19
  TRACK 23 AUDIO
    TITLE "Day Four - Clem Remembers"
    PERFORMER "Ben Foster"
    ISRC GBAJC0900242
    INDEX 01 35:22:49
  TRACK 24 AUDIO
    TITLE "Day Four - Judgement Day"
    PERFORMER "Ben Foster"
    ISRC GBAJC0900243
    INDEX 01 36:57:40
  TRACK 25 AUDIO
    TITLE "Day Four - Requiem for the Fallen"
    PERFORMER "Ben Foster"
    ISRC GBAJC0900244
    INDEX 01 41:02:60
  TRACK 26 AUDIO
    TITLE "Day Four - The Ballad of Ianto Jones"
    PERFORMER "Ben Foster"
    ISRC GBAJC0900245
    INDEX 01 42:26:18
  TRACK 27 AUDIO
    TITLE "Day Five - The Final Day"
    PERFORMER "Ben Foster"
    ISRC GBAJC0900246
    INDEX 01 47:02:41
  TRACK 28 AUDIO
    TITLE "Day Five - Calm Before the Storm"
    PERFORMER "Ben Foster"
    ISRC GBAJC0900247
    INDEX 01 47:43:36
  TRACK 29 AUDIO
    TITLE "Day Five - Phase Two Has Begun"
    PERFORMER "Ben Foster"
    ISRC GBAJC0900248
    INDEX 01 51:05:37
  TRACK 30 AUDIO
    TITLE "Day Five - Requisition 31"
    PERFORMER "Ben Foster"
    ISRC GBAJC0900249
    INDEX 01 52:55:68
  TRACK 31 AUDIO
    TITLE "Day Five - He Was a Good Man"
    PERFORMER "Ben Foster"
    ISRC GBAJC0900251
    INDEX 01 55:34:46
  TRACK 32 AUDIO
    TITLE "Day Five - The Children of Earth"
    PERFORMER "Ben Foster"
    ISRC GBAJC0900252
    INDEX 01 57:14:33
  TRACK 33 AUDIO
    TITLE "Day Five - Breaking the Connection"
    PERFORMER "Ben Foster"
    ISRC GBAJC0900253
    INDEX 01 60:42:01
  TRACK 34 AUDIO
    TITLE "Day Five - Fighting Back"
    PERFORMER "Ben Foster"
    ISRC GBAJC0900254
    INDEX 01 63:07:44
  TRACK 35 AUDIO
    TITLE "Day Five - Run for Your Lives"
    PERFORMER "Ben Foster"
    ISRC GBAJC0900255
    INDEX 00 65:10:24
    INDEX 01 65:10:25
  TRACK 36 AUDIO
    TITLE "Day Five - Sacrifice & Salvation"
    PERFORMER "Ben Foster"
    ISRC GBAJC0900256
    INDEX 01 66:24:14
  TRACK 37 AUDIO
    TITLE "Day Five - Redemption"
    PERFORMER "Ben Foster"
    ISRC GBAJC0900257
    INDEX 01 68:03:74
  TRACK 38 AUDIO
    TITLE "Day Five - I Can Run Forever"
    PERFORMER "Ben Foster"
    ISRC GBAJC0900258
    INDEX 01 71:17:25
  TRACK 39 AUDIO
    TITLE "Here Comes Torchwood"
    PERFORMER "Ben Foster"
    ISRC GBAJC0900250
    INDEX 01 74:45:62
  TRACK 40 AUDIO
    TITLE "Next Time on Torchwood"
    PERFORMER "Ben Foster"
    ISRC GBAJC0900259
    INDEX 01 77:10:27
Hope it helps,
Thanks !

Best Regards,
Zouk !
Once you go black, you never go back / DS508 - 5xWD30EZRX00MMMB0 / APC Back-UPS BR 900GI

newsla
I'm New!
I'm New!
Posts: 5
Joined: Thu Jan 06, 2011 2:34 am

Re: AudioStation : Flac/APE no seeking + .cue support missin

Unread post by newsla » Sat Apr 02, 2011 12:31 pm

so disappointing that audiostation doesn't support cue sheet, hope Synology add this feature ASAP.

raiko
Rookie
Rookie
Posts: 39
Joined: Thu Jul 09, 2009 1:35 pm

Re: AudioStation : Flac/APE no seeking + .cue support missin

Unread post by raiko » Sun May 08, 2011 7:16 am

these feature surely can make DiskStation even more appeal!
DS409+ : DSM 4.2-3211
DS410+ : DSM 4.1-2661
DS411+ : DSM 4.3-3776.3

Locked

Return to “DiskStation Manager 3.1 - 1594”